Kirjoittaja Aihe: avi -> wmv ?  (Luettu 3904 kertaa)

0 jäsentä ja 1 Vieras katselee tätä aihetta.

Poissa RaijaR

  • Jäsen
  • Viestejä: 1427
  • Sukupuoli: Nainen
avi -> wmv ?
« : 17.06.2008 - klo:18:32 »
Olen ottanut kamerallani (Canon PowerShot 710IS) videoklippejä, mutta niistä tulee turhan suuria lähetettäväksi esim. mailissä. Voiko niitä jollain konstilla "kutistaa" esim. wmv-formaattiin? Vastaanottajat käyttävät (ikävä kyllä) Windows XP:tä.
Pöytäkone ASUS ExpertCenter PN52, Tumbleweed, jossa nippu distroja QEMU/KVM:ssä.
Ja Väinö-minibulli :D
Huom! Kirjoitusvihreet tulee jostain aravuudesta...

Poissa arijoutsi

  • Käännösryhmä
  • *
  • Viestejä: 2062
  • Sukupuoli: Mies
Vs: avi -> wmv ?
« Vastaus #1 : 18.06.2008 - klo:16:41 »
Oletko koittanut pakata niitä zipeiksi. Ei kyllä mitään tietoa kuinka paljon pienenee.
HP Elite book, openSUSE Leap 15.2
Mac mini Catalina.
Puhelin, iPhone SE.

Poissa arijoutsi

  • Käännösryhmä
  • *
  • Viestejä: 2062
  • Sukupuoli: Mies
Vs: avi -> wmv ?
« Vastaus #2 : 18.06.2008 - klo:17:01 »
Tuli testattua yksi avi ja kino ohjelmalla saat sen pienemmäksi. Kino löytyy paketinhallinnasta.
HP Elite book, openSUSE Leap 15.2
Mac mini Catalina.
Puhelin, iPhone SE.

Poissa jmp

  • openSUSE Member
  • *
  • Viestejä: 4553
  • Sukupuoli: Mies
    • openSUSEa suomeksi
Vs: avi -> wmv ?
« Vastaus #3 : 18.06.2008 - klo:17:15 »
Tämä voisi toimia, laadusta en sitten osaa sanoa mitään
ffmpeg -i omafilu.avi -vcodec wmv1 omafilu.wmv
Ja muistakaa pitää hauskaa ;)

openSUSE Tumbleweed (x86_64)

Poissa RaijaR

  • Jäsen
  • Viestejä: 1427
  • Sukupuoli: Nainen
Vs: avi -> wmv ?
« Vastaus #4 : 18.06.2008 - klo:19:33 »
Kinon käyttöä harjoittelin, mutta en saanut mitään kunnollista aikaiseksi :(
Sitten kokeilin:

ffmpeg -i 1lähtö.avi -vcodec wmv1 1lähtö.wmv
FFmpeg version SVN-r13782, Copyright (c) 2000-2008 Fabrice Bellard, et al.
  configuration: --prefix=/usr --mandir=/usr/share/man --libdir=/usr/lib --shlibdir=/usr/lib --enable-pthreads --enable-shared --enable-swscale --disable-static --enable-libmp3lame --enable-libfaad --enable-libfaadbin --enable-libfaac --enable-libxvid --enable-libx264 --enable-liba52 --enable-liba52bin --enable-postproc --enable-shared --enable-libdc1394 --enable-libtheora --enable-gpl
  libavutil version: 49.7.0
  libavcodec version: 51.57.2
  libavformat version: 52.16.0
  libavdevice version: 52.0.0
  built on Jun 17 2008 04:49:42, gcc: 4.2.1 (SUSE Linux)
Input #0, avi, from '1lähtö.avi':
  Duration: 00:01:54.26, start: 0.000000, bitrate: 14725 kb/s
    Stream #0.0: Video: mjpeg, yuvj422p, 640x480, 30.00 tb(r)
    Stream #0.1: Audio: pcm_u8, 11024 Hz, mono, 88 kb/s
Output #0, asf, to '1lähtö.wmv':
    Stream #0.0: Video: wmv1, yuv420p, 640x480, q=2-31, 200 kb/s, 30.00 tb(c)
    Stream #0.1: Audio: libmp3lame, 11024 Hz, mono, 64 kb/s
Stream mapping:
  Stream #0.0 -> #0.0
  Stream #0.1 -> #0.1
Error while opening codec for output stream #0.1 - maybe incorrect parameters such as bit_rate, rate, width or height

Näyttäisi, että melkein toimii :)
Pöytäkone ASUS ExpertCenter PN52, Tumbleweed, jossa nippu distroja QEMU/KVM:ssä.
Ja Väinö-minibulli :D
Huom! Kirjoitusvihreet tulee jostain aravuudesta...

Poissa jmp

  • openSUSE Member
  • *
  • Viestejä: 4553
  • Sukupuoli: Mies
    • openSUSEa suomeksi
Vs: avi -> wmv ?
« Vastaus #5 : 18.06.2008 - klo:20:20 »
Tuonne äänen puolelle se vaikuttaisi menevän, kokeile vaikka näin

ffmpeg -i 1lähtö.avi -vcodec wmv1 -ar 44100 1lähtö.wmv
Ja muistakaa pitää hauskaa ;)

openSUSE Tumbleweed (x86_64)

Poissa RaijaR

  • Jäsen
  • Viestejä: 1427
  • Sukupuoli: Nainen
Vs: avi -> wmv ?
« Vastaus #6 : 18.06.2008 - klo:21:23 »
Jepulis! Johan muuntui avi -> wmv ja kokokin muuttui 200M -> 8M.
Suurkiitos!
Pöytäkone ASUS ExpertCenter PN52, Tumbleweed, jossa nippu distroja QEMU/KVM:ssä.
Ja Väinö-minibulli :D
Huom! Kirjoitusvihreet tulee jostain aravuudesta...

Poissa jmp

  • openSUSE Member
  • *
  • Viestejä: 4553
  • Sukupuoli: Mies
    • openSUSEa suomeksi
Vs: avi -> wmv ?
« Vastaus #7 : 18.06.2008 - klo:22:59 »
No probs ;)
Ja muistakaa pitää hauskaa ;)

openSUSE Tumbleweed (x86_64)